→ Download | Tales of Adventure:Start Now! | post Consiga melhores fotos sem quebrar o bancoVer mais

Verified torrent Alpha 2018 NEW 720p HDCAM x264 [MW]


    Seeders : 96      Leechers : 92

Hash :579D0DB7E5B15EEFA82ED49EEF6FB1A5BE23A573
Added :Yesterday by MovieFreakVerified torrent uploader in Movies
Size :1.37 GB
Stream :Watch Full Movie Online @ Movie4u
Share :


Alpha 2018 NEW 720p HDCAM x264 [MW]
Download Direct And Anonymously







Warning! Do not Download Torrents Without a VPN!
Your IP Address is 185.162.9.168.   And Location is Netherlands, Naaldwijk
Your Internet Provider and Government can track your torrent Activity!  Hide your IP ADDRESS with a VPN!
We Strongly Recommend Using Best Cheapest VPN to Anonymize your Torrenting.

Note :

Please Update (Trackers Info) Before Start Torrents Downloading to See Updated Seeders And Leechers for Batter Download Speed.

Trackers List

Tracker NameLast CheckStatusSeedersLeechers
udp://tracker.pirateparty.gr:6969/announceYesterdaysuccess9692
udp://tracker.coppersurfer.tk:6969/announceYesterdaysuccess9692
udp://tracker.coppersurfer.tk:80/announceYesterdaysuccess9692
udp://tracker.opentrackr.org:1337/announceYesterdaysuccess5451
udp://tracker.vanitycore.co:6969/announceYesterdaysuccess4141
udp://public.popcorn-tracker.org:6969/announceYesterdaysuccess3945
udp://open.stealth.si:80/announceYesterdaysuccess3439
udp://tracker.tiny-vps.com:6969/announceYesterdaysuccess3137
udp://thetracker.org:80/announceYesterdaysuccess119
udp://bt.xxx-tracker.com:2710/announceYesterdaysuccess99
udp://tracker.internetwarriors.net:1337/announceYesterdaysuccess99
udp://tracker.port443.xyz:6969/announceYesterdaysuccess77
udp://tracker.mg64.net:6969/announceYesterdaysuccess42
http://public.popcorn-tracker.org:6969/announceYesterdaysuccess10
http://9.rarbg.me:2800/announceYesterdaysuccess10
http://tracker.vanitycore.co:6969/announceYesterdaysuccess10
http://9.rarbg.to:2720/announceYesterdaysuccess10
udp://exodus.desync.com:6969/announceYesterdaysuccess01
http://share.camoe.cn:8080/announceYesterdaysuccess00




Torrent File Content (1 file)


Alpha 2018 NEW 720p HDCAM x264 [MW]
     Alpha 2018 NEW 720p HDCAM x264 [MW].mkv -
1.37 GB



Description




[url=http://pichub.site/image/SIR08]
http://pichub.site/images/2018/08/20/al.md.jpg
[/url]


General
Format : Matroska
Format version : Version 4 / Version 2
File size : 1.37 GiB
Duration : 1 h 29 min
Overall bit rate : 2 188 kb/s

Video
ID : 1
Format : AVC
Format/Info : Advanced Video Codec
Format profile : [email protected]
Format settings : CABAC / 4 Ref Frames
Format settings, CABAC : Yes
Format settings, RefFrames : 4 frames
Codec ID : V_MPEG4/ISO/AVC
Duration : 1 h 29 min
Bit rate : 2 000 kb/s
Width : 1 280 pixels
Height : 708 pixels
Display aspect ratio : 16:9
Frame rate mode : Constant
Frame rate : 29.970 (30000/1001) FPS
Color space : YUV
Chroma subsampling : 4:2:0
Bit depth : 8 bits
Scan type : Progressive
Bits/(Pixel*Frame) : 0.074
Stream size : 1.25 GiB (91%)
Writing library : x264 core 155 r2901 7d0ff22
Default : Yes
Forced : No

Audio
ID : 2
Format : AAC
Format/Info : Advanced Audio Codec
Format profile : LC
Codec ID : A_AAC-2
Duration : 1 h 29 min
Bit rate : 192 kb/s
Channel(s) : 2 channels
Channel positions : Front: L R
Sampling rate : 48.0 kHz
Frame rate : 46.875 FPS (1024 SPF)
Compression mode : Lossy
Stream size : 123 MiB (9%)
Language : English
Default : Yes
Forced : No


Click To Enlarge Image

[url=http://pichub.site/image/SIOwX]
http://pichub.site/images/2018/08/20/00_07_30.md.jpg
[/url]
[url=http://pichub.site/image/SISFJ]
http://pichub.site/images/2018/08/20/00_10_49.md.jpg
[/url]
[url=http://pichub.site/image/SIEE5]
http://pichub.site/images/2018/08/20/00_15_20.md.jpg
[/url]
[url=http://pichub.site/image/SIduh]
http://pichub.site/images/2018/08/20/00_27_57.md.jpg
[/url]
[url=http://pichub.site/image/SI7sj]
http://pichub.site/images/2018/08/20/00_41_06.md.jpg
[/url]
[url=http://pichub.site/image/SIcar]
http://pichub.site/images/2018/08/20/00_48_21.md.jpg
[/url]


Related torrents

Torrent NameAddedSizeSeedLeechHealth
Verified torrent
2 days ago - in Movies785.91 MB5428
Verified torrent
2 days ago - in Movies2.44 GB5198
2 days ago - in Movies2.44 GB613
Verified torrent
13 days ago - in Movies1.16 GB3715
Verified torrent
22 days ago - in Movies1.3 GB9187
Verified torrent
Last Month - in Movies1.23 GB6914

Note :

Feel free to post any comments about this torrent, including links to Subtitle, samples, screenshots, or any other relevant information. Please Dont Download anything from Comments, And Links to Streaming Sites like Watch Online Alpha 2018 NEW 720p HDCAM x264 [MW] Full Movie, Fmovies, 123Movies, Putlocker, Netflix, etc.

Comments (0 Comments)




Please login or create a FREE account to post comments

Latest Searches