Watch Dogs 2 Update v1.07 and Crack-CPY | Castaways Season 1 Episode 7 s01e07 | 17 August 2017

Verified torrent Avengers Infinity War 2018 1080p BluRay x264 Dual Audio [Hindi DD 5.1 - English DD 5.1] ESub [MW]


    Seeders : 48      Leechers : 95

Warning! Do not Download Torrents Without a VPN!
Your IP Address is 185.162.9.168.   And Location is Netherlands, Naaldwijk
Your Internet Provider and Government can track your torrent Activity!  Hide your IP ADDRESS with a VPN!
We Strongly Recommend Using Best Cheapest VPN to Anonymize your Torrenting.

Note :

Please Update (Trackers Info) Before Start Torrents Downloading to See Updated Seeders And Leechers for Batter Download Speed.

Trackers List

Tracker NameLast CheckStatusSeedersLeechers
udp://tracker.tiny-vps.com:6969/announce3 days agosuccess4864
udp://tracker.leechers-paradise.org:6969/announce3 days agosuccess4171
udp://shadowshq.yi.org:6969/announce3 days agosuccess4171
udp://eddie4.nl:6969/announce3 days agosuccess4171
udp://tracker.coppersurfer.tk:80/announce3 days agosuccess3895
udp://tracker.pirateparty.gr:6969/announce3 days agosuccess3895
udp://tracker.coppersurfer.tk:6969/announce3 days agosuccess3895
udp://open.stealth.si:80/announce3 days agosuccess3364
udp://9.rarbg.to:2720/announce3 days agosuccess3272
udp://9.rarbg.to:2710/announce3 days agosuccess3272
udp://tracker.opentrackr.org:1337/announce3 days agosuccess3276
udp://9.rarbg.to:2770/announce3 days agosuccess3272
udp://9.rarbg.to:2730/announce3 days agosuccess3272
udp://9.rarbg.to:2740/announce3 days agosuccess3272
udp://9.rarbg.me:2740/announce3 days agosuccess3272
udp://9.rarbg.me:2730/announce3 days agosuccess3272
udp://9.rarbg.me:2770/announce3 days agosuccess3272
udp://tracker.vanitycore.co:6969/announce3 days agosuccess2957
udp://public.popcorn-tracker.org:6969/announce3 days agosuccess2350
udp://tracker.internetwarriors.net:1337/announce3 days agosuccess516
udp://tracker.port443.xyz:6969/announce3 days agosuccess510
udp://bt.xxx-tracker.com:2710/announce3 days agosuccess47
udp://thetracker.org:80/announce3 days agosuccess413
http://tracker2.itzmx.com:8080/announce3 days agosuccess27
udp://tracker.mg64.net:6969/announce3 days agosuccess13
udp://tracker.torrent.eu.org:451/announce3 days agosuccess01
udp://exodus.desync.com:6969/announce3 days agosuccess01
http://share.camoe.cn:8080/announce3 days agosuccess00
udp://tracker.justseed.it:1337/announce3 days agosuccess00
udp://tracker.torrent.eu.org:4513 days agosuccess01




Torrent File Content (1 file)


Avengers Infinity War 2018 1080p BluRay x264 Dual Audio [Hindi DD 5.1 - English DD 5.1] ESub [MW]
     Avengers Infinity War 2018 1080p BluRay x264 Dual Audio [Hindi DD 5.1 - English DD 5.1] ESub [MW].mkv -
4.24 GB



Description




Avengers Infinity War 2018 1080p BluRay x264 Dual Audio [Hindi DD 5.1 - English DD 5.1] ESub [MW]

[url=http://pichub.site/image/ORMpd]
http://pichub.site/images/2018/07/30/aceng.md.jpg
[/url]


General
Format : Matroska
Format version : Version 4 / Version 2
File size : 4.24 GiB
Duration : 2 h 29 min
Overall bit rate : 4 063 kb/s

Video
ID : 1
Format : AVC
Format/Info : Advanced Video Codec
Format profile : [email protected]
Format settings : CABAC / 4 Ref Frames
Format settings, CABAC : Yes
Format settings, RefFrames : 4 frames
Codec ID : V_MPEG4/ISO/AVC
Duration : 2 h 29 min
Bit rate : 3 000 kb/s
Width : 1 920 pixels
Height : 804 pixels
Display aspect ratio : 2.40:1
Frame rate mode : Constant
Frame rate : 23.976 (24000/1001) FPS
Color space : YUV
Chroma subsampling : 4:2:0
Bit depth : 8 bits
Scan type : Progressive
Bits/(Pixel*Frame) : 0.081
Stream size : 3.10 GiB (73%)
Writing library : x264 core 155 r2901 7d0ff22
Default : Yes
Forced : No

Audio #1
ID : 4
Format : AC-3
Format/Info : Audio Coding 3
Codec ID : A_AC3
Duration : 2 h 29 min
Bit rate mode : Constant
Bit rate : 640 kb/s
Channel(s) : 6 channels
Channel positions : Front: L C R, Side: L R, LFE
Sampling rate : 48.0 kHz
Frame rate : 31.250 FPS (1536 SPF)
Bit depth : 16 bits
Compression mode : Lossy
Stream size : 684 MiB (16%)
Language : Hindi
Service kind : Complete Main
Default : Yes
Forced : No

Audio #2
ID : 5
Format : AC-3
Format/Info : Audio Coding 3
Codec ID : A_AC3
Duration : 2 h 29 min
Bit rate mode : Constant
Bit rate : 448 kb/s
Channel(s) : 6 channels
Channel positions : Front: L C R, Side: L R, LFE
Sampling rate : 48.0 kHz
Frame rate : 31.250 FPS (1536 SPF)
Bit depth : 16 bits
Compression mode : Lossy
Stream size : 479 MiB (11%)
Language : English
Service kind : Complete Main
Default : No
Forced : No

Text #1
ID : 2
Format : VobSub
Muxing mode : zlib
Codec ID : S_VOBSUB
Codec ID/Info : Picture based subtitle format used on DVDs
Duration : 2 h 28 min
Bit rate : 5 662 b/s
Count of elements : 2067
Stream size : 6.01 MiB (0%)
Language : English
Default : Yes
Forced : No

Text #2
ID : 3
Format : VobSub
Muxing mode : zlib
Codec ID : S_VOBSUB
Codec ID/Info : Picture based subtitle format used on DVDs
Duration : 1 s 115 ms
Bit rate : 16.0 kb/s
Count of elements : 1
Stream size : 2.18 KiB (0%)
Language : English
Default : No
Forced : No


Click To Enlarge Image

[url=http://pichub.site/image/SMk84]
http://pichub.site/images/2018/08/18/00_12_59.md.jpg
[/url]
[url=http://pichub.site/image/SMw5p]
http://pichub.site/images/2018/08/18/00_56_20.md.jpg
[/url]
[url=http://pichub.site/image/SMyqy]
http://pichub.site/images/2018/08/18/00_55_14.md.jpg
[/url]
[url=http://pichub.site/image/SMhwb]
http://pichub.site/images/2018/08/18/01_00_24.md.jpg
[/url]
[url=http://pichub.site/image/SMi00]
http://pichub.site/images/2018/08/18/01_33_01.md.jpg
[/url]
[url=http://pichub.site/image/SMtFV]
http://pichub.site/images/2018/08/18/00_59_3512729da4a34de657.md.jpg
[/url]
[url=http://pichub.site/image/SM8ET]
http://pichub.site/images/2018/08/18/00_48_50.md.jpg
[/url]


Related torrents

Torrent NameAddedSizeSeedLeechHealth
Verified torrent
9 days ago - in Movies2.22 GB00
Verified torrent
Last Month - in Movies7.8 GB1626
Verified torrent
Last Month - in Movies3.28 GB1310
Verified torrent
3 months ago - in Movies2.59 GB8620
Verified torrent
3 months ago - in Movies3.66 GB00

Note :

Feel free to post any comments about this torrent, including links to Subtitle, samples, screenshots, or any other relevant information. Please Dont Download anything from Comments, And Links to Streaming Sites like Watch Online Avengers Infinity War 2018 1080p BluRay x264 Dual Audio [Hindi DD 5.1 - English DD 5.1] ESub [MW] Full Movie, Fmovies, 123Movies, Putlocker, Netflix, etc.

Comments (0 Comments)




Please login or create a FREE account to post comments

Latest Searches