Kickboxer 2: Le Successeur | SolCalendar | Watch now!

Verified torrent Hotel Artemis 2018 720p HDCAM X264 [MW]


    Seeders : 2      Leechers : 3

Hash :A50268736B79FA50905B4E8E455A42288C69B088
Added :2 hours ago by MovieFreakVerified torrent uploader in Movies
Size :1007.44 MB
Stream :Watch Full Movie Online @ Movie4u
Share :


Hotel Artemis 2018 720p HDCAM X264 [MW]
Download Direct And Anonymously







Warning! Do not Download Torrents Without a VPN!
Your IP Address is 185.162.9.168.   And Location is Netherlands, Naaldwijk
Your Internet Provider and Government can track your torrent Activity!  Hide your IP ADDRESS with a VPN!
We Strongly Recommend Using Best Cheapest VPN to Anonymize your Torrenting.

Note :

Please Update (Trackers Info) Before Start Torrents Downloading to See Updated Seeders And Leechers for Batter Download Speed.

Trackers List

Tracker NameLast CheckStatusSeedersLeechers
udp://tracker.coppersurfer.tk:80/announce2 hours agosuccess23
udp://tracker.pirateparty.gr:6969/announce2 hours agosuccess23
udp://open.stealth.si:80/announce2 hours agosuccess22
udp://tracker.coppersurfer.tk:6969/announce2 hours agosuccess23
udp://tracker.opentrackr.org:1337/announce2 hours agosuccess23
udp://tracker.vanitycore.co:6969/announce2 hours agosuccess23
udp://exodus.desync.com:6969/announce2 hours agosuccess00
udp://bt.xxx-tracker.com:2710/announce2 hours agosuccess00




Torrent File Content (1 file)


Hotel Artemis 2018 720p HDCAM X264 [MW]
     Hotel Artemis 2018 720p HDCAM X264 [MW].mkv -
1007.44 MB



Description




[url=http://pichub.site/image/RFVor]
http://pichub.site/images/2018/08/10/hoel.md.jpg
[/url]


General
Format : Matroska
Format version : Version 4 / Version 2
File size : 1 007 MiB
Duration : 1 h 26 min
Overall bit rate : 1 630 kb/s

Video
ID : 1
Format : AVC
Format/Info : Advanced Video Codec
Format profile : [email protected]
Format settings : CABAC / 4 Ref Frames
Format settings, CABAC : Yes
Format settings, RefFrames : 4 frames
Codec ID : V_MPEG4/ISO/AVC
Duration : 1 h 26 min
Bit rate : 1 500 kb/s
Width : 1 248 pixels
Height : 512 pixels
Display aspect ratio : 2.40:1
Frame rate mode : Constant
Frame rate : 29.970 (30000/1001) FPS
Color space : YUV
Chroma subsampling : 4:2:0
Bit depth : 8 bits
Scan type : Progressive
Bits/(Pixel*Frame) : 0.078
Stream size : 927 MiB (92%)
Writing library : x264 core 155 r2901 7d0ff22
Default : Yes
Forced : No

Audio
ID : 2
Format : AAC
Format/Info : Advanced Audio Codec
Format profile : LC
Codec ID : A_AAC-2
Duration : 1 h 26 min
Bit rate : 128 kb/s
Channel(s) : 2 channels
Channel positions : Front: L R
Sampling rate : 48.0 kHz
Frame rate : 46.875 FPS (1024 SPF)
Compression mode : Lossy
Stream size : 79.4 MiB (8%)
Default : Yes
Forced : No


Click To Enlarge Image

[url=http://pichub.site/image/RF7hj]
http://pichub.site/images/2018/08/10/00_13_43.md.jpg
[/url]
[url=http://pichub.site/image/RFcbk]
http://pichub.site/images/2018/08/10/00_35_30.md.jpg
[/url]
[url=http://pichub.site/image/RFwVQ]
http://pichub.site/images/2018/08/10/00_35_50.md.jpg
[/url]
[url=http://pichub.site/image/RFyUv]
http://pichub.site/images/2018/08/10/00_43_12.md.jpg
[/url]
[url=http://pichub.site/image/RFC9d]
http://pichub.site/images/2018/08/10/00_44_32.md.jpg
[/url]
[url=http://pichub.site/image/RFiR9]
http://pichub.site/images/2018/08/10/00_52_35.md.jpg
[/url]
[url=http://pichub.site/image/RFtKu]
http://pichub.site/images/2018/08/10/01_11_40.md.jpg
[/url]


Related torrents

Torrent NameAddedSizeSeedLeechHealth
Verified torrent
6 hours ago - in Movies2.44 GB22133
24 days ago - in Movies850.05 MB12826
Verified torrent
4 months ago - in Movies1.38 GB4113
5 days ago - in Movies931.04 MB21
17 days ago - in Movies1.1 GB328
Verified torrent
19 days ago - in Movies985.32 MB318

Note :

Feel free to post any comments about this torrent, including links to Subtitle, samples, screenshots, or any other relevant information. Please Dont Download anything from Comments, And Links to Streaming Sites like Watch Online Hotel Artemis 2018 720p HDCAM X264 [MW] Full Movie, Fmovies, 123Movies, Putlocker, Netflix, etc.

Comments (0 Comments)




Please login or create a FREE account to post comments

Latest Searches