Su Shangqing | The Darkness and the Light | Privacy Messenger Pro apk v3.3.8 Unlocked [Latest]

Verified torrent The Meg 2018 720p HDCAM x264 [MW]


    Seeders : 0      Leechers : 0

Hash :9C7A2BAF99E3D5E573B02A17E3F297AFB7D42A06
Added :1 hour ago by MovieFreakVerified torrent uploader in Movies
Size :1.11 GB
Stream :Watch Full Movie Online @ Movie4u
Share :


The Meg 2018 720p HDCAM x264 [MW]
Download Direct And Anonymously







Warning! Do not Download Torrents Without a VPN!
Your IP Address is 185.162.9.168.   And Location is Netherlands, Naaldwijk
Your Internet Provider and Government can track your torrent Activity!  Hide your IP ADDRESS with a VPN!
We Strongly Recommend Using Best Cheapest VPN to Anonymize your Torrenting.

Note :

Please Update (Trackers Info) Before Start Torrents Downloading to See Updated Seeders And Leechers for Batter Download Speed.

Trackers List

Tracker NameLast CheckStatusSeedersLeechers




Torrent File Content (1 file)


The Meg 2018 720p HDCAM x264 [MW]
     The Meg 2018 720p HDCAM x264 [MW].mkv -
1.11 GB



Description




[url=http://pichub.site/image/RFAJs]
http://pichub.site/images/2018/08/10/meg.md.jpg
[/url]


General
Format : Matroska
Format version : Version 4 / Version 2
File size : 1.11 GiB
Duration : 1 h 43 min
Overall bit rate : 1 538 kb/s

Video
ID : 1
Format : AVC
Format/Info : Advanced Video Codec
Format profile : [email protected]
Format settings : CABAC / 4 Ref Frames
Format settings, CABAC : Yes
Format settings, RefFrames : 4 frames
Codec ID : V_MPEG4/ISO/AVC
Duration : 1 h 43 min
Bit rate : 1 400 kb/s
Width : 1 280 pixels
Height : 532 pixels
Display aspect ratio : 2.40:1
Frame rate mode : Constant
Frame rate : 29.970 (30000/1001) FPS
Color space : YUV
Chroma subsampling : 4:2:0
Bit depth : 8 bits
Scan type : Progressive
Bits/(Pixel*Frame) : 0.069
Stream size : 1.02 GiB (92%)
Writing library : x264 core 155 r2901 7d0ff22
Default : Yes
Forced : No

Audio
ID : 2
Format : AAC
Format/Info : Advanced Audio Codec
Format profile : LC
Codec ID : A_AAC-2
Duration : 1 h 43 min
Bit rate : 128 kb/s
Channel(s) : 2 channels
Channel positions : Front: L R
Sampling rate : 48.0 kHz
Frame rate : 46.875 FPS (1024 SPF)
Compression mode : Lossy
Stream size : 95.0 MiB (8%)
Default : Yes
Forced : No


Click To Enlarge Image

[url=http://pichub.site/image/RFzXR]
http://pichub.site/images/2018/08/10/00_04_09.md.jpg
[/url]
[url=http://pichub.site/image/RFKpY]
http://pichub.site/images/2018/08/10/00_12_04.md.jpg
[/url]
[url=http://pichub.site/image/RFBiB]
http://pichub.site/images/2018/08/10/00_17_16.md.jpg
[/url]
[url=http://pichub.site/image/RFgb6]
http://pichub.site/images/2018/08/10/00_20_19.md.jpg
[/url]
[url=http://pichub.site/image/RFGv4]
http://pichub.site/images/2018/08/10/00_27_15.md.jpg
[/url]
[url=http://pichub.site/image/RFuct]
http://pichub.site/images/2018/08/10/00_28_35.md.jpg
[/url]
[url=http://pichub.site/image/RFN9p]
http://pichub.site/images/2018/08/10/01_06_25.md.jpg
[/url]
[url=http://pichub.site/image/RFvSy]
http://pichub.site/images/2018/08/10/01_07_10.md.jpg
[/url]


Related torrents

Torrent NameAddedSizeSeedLeechHealth
3 hours ago - in Movies1.1 GB6498
8 hours ago - in Movies2.45 GB1869
Verified torrent
8 hours ago - in Movies2.45 GB8851,227
Verified torrent
Last Month - in Movies1.13 GB00
Verified torrent
6 hours ago - in Movies716.27 MB145238
Verified torrent
7 hours ago - in Movies2.45 GB99184

Note :

Feel free to post any comments about this torrent, including links to Subtitle, samples, screenshots, or any other relevant information. Please Dont Download anything from Comments, And Links to Streaming Sites like Watch Online The Meg 2018 720p HDCAM x264 [MW] Full Movie, Fmovies, 123Movies, Putlocker, Netflix, etc.

Comments (0 Comments)




Please login or create a FREE account to post comments

Latest Searches